samsung三星4K演示片-全球最美城市夜景:4K[迪拜Dubai]无与伦比的华丽璀璨3840×2160p[百度] 

2017-12-06 19:37 发布

4k视频下载 /[4k演示视频]
全球最美城市夜景:4K[迪拜Dubai]无与伦比的华丽璀璨3840×2160p[百度]% l: _0 C% x- q& ]7 F& p
5 S! T( D- e9 P
130427ayzewl585ssi5dsy.jpg
! V0 H" z' `) c9 M1 ~: n5 h: S& T1 |0 N5 j: O0 ?/ t% N
130427pt5vvfzgp200p70z.jpg
1 R1 `- P( ^; L( ]& B: i
' Y# w+ S$ \5 g- G/ d- n2 I 130428clq1010l4ypzy967.jpg ; H4 W$ C7 f' F
3 `5 R# R* o! @. B" P& w' z
130428h797r9sh0o40bov1.jpg : J* d3 m& Q# D+ q% T9 v- C

# B3 {  J7 i; z  q) s0 ? 130428rxo5d4n45qobog4g.jpg
/ F: K* F$ c1 E( D% ]' l5 [) y& k: G8 W$ [6 ]
130429x3y3rrm59yz9k9d2.jpg
( o' _) j- s" b* ^
/ f1 Z! b+ O' H0 o4 H' a 130429tuogo0022mgsm5kv.jpg
& T4 x+ J9 V5 k
6 D$ P$ X. S+ o6 }0 K, g5 M4 A一座超级土豪的城市,金碧辉煌的城市夜景。samsung三星4K演示片视频。) q  y* U+ a* i! O4 X4 \; D4 Y
$ L  ~, k; p" m
全球最美城市夜景:4K[迪拜Dubai]无与伦比的华丽璀璨1 Z* H" z  S" u- z7 C& o. N
视频参数信息:
. o+ ]5 H; ]0 w, c8 L
# A7 R7 h; }- K( P# o+ o
  • General
  • ID                             : 0 (0x0)
  • Complete name                  : T:K中国samsung三星4K演示片uhdtv迪拜Dubai.ts
  • Format                         : MPEG-TS
  • File size                      : 656 MiB
  • Duration                       : 1mn 47s
  • Overall bit rate mode          : Constant
  • Overall bit rate               : 51.4 Mbps
  • Video
  • ID                             : 257 (0x101)
  • Menu ID                        : 1 (0x1)
  • Format                         : HEVC
  • Format/Info                    : High Efficiency Video Coding
  • Codec ID                       : 36
  • Duration                       : 1mn 46s
  • Bit rate                       : 48.7 Mbps
  • Stream size                    : 616 MiB (94%)
  • Audio
  • ID                             : 258 (0x102)
  • Menu ID                        : 1 (0x1)
  • Format                         : AAC
  • Format/Info                    : Advanced Audio Codec
  • Format version                 : Version 4
  • Format profile                 : LC
  • Muxing mode                    : ADTS
  • Codec ID                       : 15
  • Duration                       : 1mn 46s
  • Bit rate mode                  : Variable
  • Bit rate                       : 137 Kbps
  • Channel(s)                     : 2 channels
  • Channel positions              : Front: L R
  • Sampling rate                  : 48.0 KHz
  • Compression mode               : Lossy
  • Stream size                    : 1.73 MiB (0%)3 c  r# f$ D& Z# Q2 J+ o, V% t$ H

6 ^! a# p1 y8 ~+ d! M9 U8 e) }其它关键信息:. L" M$ d: G8 g, J% \) `4 |

! J" }+ ^1 o  o7 E( i/ d5 X+类型:三星4K UHDTV视频演示片6 ~( l. W9 m0 c2 L4 b" A
+视频格式:TS$ V- @& X* z0 r8 K) ~$ h+ D0 T( `
+文件大小:655mb
! d$ P0 J& V2 E# ?7 ]' L+视频编码:HEVC/H.265
, n% U% E# J: @4 O% g) D+ {' |7 m, i2 |+PS: H265需要软、硬件支持才能播放。
; W# G! L! `; `- B+ d4 s  w! h" ^+ r  j. A1 i+ B
每一个镜头画面,都值得仔仔细细欣赏,反正我忍不住看了10多遍!
" a7 W5 j# o6 l2 ^, g推荐在50寸以上屏幕观看。否则是体验不了这部片的真实感受。

) x# C+ r4 j6 g: f, psamsung三星4K演示片-全球最美城市夜景:4K[迪拜Dubai]无与伦比的华丽璀璨3840×2160p百度云盘下载:! y$ f+ [, a7 B; r) q* f/ m% s1 [
samsung三星4K演示片-全球最美城市夜景视频下载.txt (295 Bytes, 下载次数: 151)
B Color Smilies

全部评论1508

  • tonyyuan163 2018-10-25 14:58
    啥也不说了,感谢楼主在hao4k分享4k视频内容哇!
  • jessicassica 2018-10-25 09:01
    世界上最恶心的城市就是迪拜
  • zhonglinghui 2018-10-20 11:21
    好资源,支持一下。。。。。。
  • heroares 2018-10-16 16:08
    非常感谢!需要用这个测试
  • 仁义礼信 2018-9-4 14:10
    由衷感谢Hao4k平台提供4K资源,可以试试我家的私人影院了。
  • 仁义礼信 2018-9-4 14:07
    感谢视频的提供。绝美的城市风光。
  • 123lll 2018-8-30 13:18
    这个4K资源很不错哦,我喜欢。赶紧试试我家4K电视
  • Jimmymfy 2018-8-30 13:16
    由衷感谢Hao4k平台提供4K资源,可以试试我家的私人影院了。
  • 高清2018 2018-8-30 12:54
    感谢楼主在hao4k分享4k视频内容哇!
  • KEEP6567 2018-8-29 23:01
    这个视频可以下载么
    8 o4 L5 }, a0 A5 h- i( F0 r6 ]
  • q82823050 2018-8-27 22:44
    66666666666
  • zrk2249836 2018-8-27 22:42
    这个4K资源很不错哦,我喜欢。赶紧试试我家4K电视
  • script 2018-8-27 22:18
    由衷感谢Hao4k平台提供4K资源,可以试试我家的私人影院了。
  • script 2018-8-27 22:17
    由衷感谢Hao4k平台提供4K资源,可以试试我家的私人影院了。
  • zlcd911 2018-8-27 17:35
    支持Hao4k发展
  • zxd79 2018-8-27 16:30
    确实是难得4k,必须顶起来
  • 1445207859 2018-8-27 15:47
    啥也不说了,感谢楼主在hao4k分享4k视频内容哇啥也不说了,感谢楼主在hao4k分享4k视频内容哇66
  • yleel 2018-8-27 12:14
    由衷感谢Hao4k平台提供4K资源,可以试试我家的私人影院了。
samsung三星4K演示片-全球最美城市夜景:4K[迪拜Dubai]无与伦比的华丽璀璨3840×2160p[百度] 
返回顶部 联系我们