片  名:America 4K The Beautiful Country

  • 导  演:
  • 年  代:2018年
  • 国  家:美国   
  • 电影分类:纪录片   
  • 电影格式:MKV|REMUX   
  • 分 辨 率: 4K(3840x2160)    
  • 画质标准:其他 
  • 音质编码:DTS-HD Master Audio    DTS Audio     
  • 电影声道:5.1声道   
  • 电影语言:英文原版     
  • 资源大小:35.48GB
  • 中文字幕:

剧情简介

America.4K.The.Beautiful.Country.2013.DOCU.2160p.BluRay.REMUX.HEVC.DTS-HD.MA.5.1-FGT 4K  UHD蓝光原盘电影信息

第304部 4K UHD 蓝光原盘破解版,含完整的 BDMV 文件夹以及数据,AACS 2.0 协议已被完整破解

Video
ID                                       : 1
Format                                   : HEVC
Format/Info                              : High Efficiency Video Coding
Format profile                           : Main 10@L5.1@High
Codec ID                                 : V_MPEGH/ISO/HEVC
Duration                                 : 1 h 30 min
Bit rate                                 : 50.0 Mb/s
Width                                    : 3 840 pixels
Height                                   : 2 160 pixels
Display aspect ratio                     : 16:9
Frame rate mode                          : Constant
Frame rate                               : 23.976 (24000/1001) FPS
Color space                              : YUV
Chroma subsampling                       : 4:2:0
Bit depth                                : 10 bits
Bits/(Pixel*Frame)                       : 0.251
Stream size                              : 31.5 GiB (89%)
Title                                    : America.4K.The.Beautiful.Country.2013.DOCU.2160p.BluRay.REMUX.HEVC.DTS-HD.MA.5.1-FGT
Writing library                          : ATEME Titan File 3.7.7 (4.7.7.0)
Default                                  : Yes
Forced                                   : No
Color range                              : Limited
Color primaries                          : BT.709
Transfer characteristics                 : BT.709
Matrix coefficients                      : BT.709

Audio #1
ID                                       : 2
Format                                   : DTS
Format/Info                              : Digital Theater Systems
Format profile                           : MA / Core
Codec ID                                 : A_DTS
Duration                                 : 1 h 30 min
Bit rate mode                            : Variable / Constant
Bit rate                                 : 3 163 kb/s / 1 509 kb/s
Channel(s)                               : 6 channels
Channel positions                        : Front: L C R, Side: L R, LFE
Sampling rate                            : 48.0 kHz
Frame rate                               : 93.750 FPS (512 SPF)
Bit depth                                : 24 bits
Compression mode                         : Lossless / Lossy
Stream size                              : 1.99 GiB (6%)
Title                                    : America.4K.The.Beautiful.Country.2013.DOCU.2160p.BluRay.REMUX.HEVC.DTS-HD.MA.5.1-FGT
Language                                 : English
Default                                  : Yes
Forced                                   : No

Audio #2
ID                                       : 3
Format                                   : DTS
Format/Info                              : Digital Theater Systems
Format profile                           : MA / Core
Codec ID                                 : A_DTS
Duration                                 : 1 h 30 min
Bit rate mode                            : Variable / Constant
Bit rate                                 : 3 190 kb/s / 1 509 kb/s
Channel(s)                               : 6 channels
Channel positions                        : Front: L C R, Side: L R, LFE
Sampling rate                            : 48.0 kHz
Frame rate                               : 93.750 FPS (512 SPF)
Bit depth                                : 24 bits
Compression mode                         : Lossless / Lossy
Stream size                              : 2.01 GiB (6%)
Title                                    : America.4K.The.Beautiful.Country.2013.DOCU.2160p.BluRay.REMUX.HEVC.DTS-HD.MA.5.1-FGT
Language                                 : German
Default                                  : No
Forced                                   : No

Menu
00:00:00.000                             : en:Chapter 1
00:09:40.371                             : en:Chapter 2
00:17:50.360                             : en:Chapter 3
00:23:54.057                             : en:Chapter 4
00:33:00.561                             : en:Chapter 5
00:42:56.323                             : en:Chapter 6
00:50:57.679                             : en:Chapter 7
01:00:47.852                             : en:Chapter 8
01:11:15.145                             : en:Chapter 9
01:21:08.280                             : en:Chapter 10

America.4K.The.Beautiful.Country.2013.DOCU.2160p.BluRay.REMUX.HEVC.DTS-HD.MA.5.1-FGT 4K  UHD蓝光原盘电影下载

America.4K.The.Beautiful.Country.2013.DOCU.2160p.BluRay.HEVC.DTS-HD.MA.5.1-PRECELL (4K UHD BDISO蓝光原盘 2160p 39.91GB)
[hao4k.com]America.4K.The.Beautiful.Country.2013.DOCU.2160p.BluRay.HEVC.DTS-HD.M.torrent (103.49 KB, 下载次数: 85, 资源售价: 6 K币)
B Color Smilies

全部评论450

America.4K.The.Beautiful.Country.2013.DOCU.2160p.BluRay.REMUX.HEVC.DTS-HD.MA.5.14K版下载[第304部破解4K UHD蓝光原盘电影] 
返回顶部 联系我们