片  名:塞伦盖蒂:自然界最壮观的旅程4k

  • 导  演:Craig Foley
  • 年  代:
  • 国  家:美国   
  • 电影分类:纪录片   
  • 电影格式:MKV|REMUX   
  • 分 辨 率: 4K(3840x2160)    
  • 画质标准:其他 
  • 音质编码:DTS-HD Master Audio    DTS Audio     
  • 电影声道:5.1声道   
  • 电影语言:英文原版     
  • 资源大小:24.50GB
  • 中文字幕:

剧情简介

The Serengeti s fight over life and death is between predator and prey. The omnipresence of grazing animals means abundant kills for prides of golden-maned lions. Solitary leopards haunt the acacia trees lining the Seronera River, while numerous cheetahs scour the southeastern plains. Almost nowhere else in Africa can all of the continent s jackal species be found in the same place. The immensity of this animal drama is equaled by the liberating vastness of open space so characteristic of the Serengeti Plains, which extend out from sun-baked savannas to shimmering golden horizons that seem to lie at the end of the earth.
塞伦盖蒂:自然界最壮观的旅程4k-Serengeti.4K.Natures.Greatest.Journey.2015.DOCU.2160p.BluRay.REMUX.HEVC.DTS-HD.MA.5.1-FGT 4K  UHD蓝光原盘电影信息

第305部 4K UHD 蓝光原盘破解版,含完整的 BDMV 文件夹以及数据,AACS 2.0 协议已被完整破解
Video
ID                                       : 1
Format                                   : HEVC
Format/Info                              : High Efficiency Video Coding
Format profile                           : Main 10@L5.1@High
Codec ID                                 : V_MPEGH/ISO/HEVC
Duration                                 : 1 h 1 min
Bit rate                                 : 50.0 Mb/s
Width                                    : 3 840 pixels
Height                                   : 2 160 pixels
Display aspect ratio                     : 16:9
Frame rate mode                          : Constant
Frame rate                               : 23.976 (24000/1001) FPS
Color space                              : YUV
Chroma subsampling                       : 4:2:0
Bit depth                                : 10 bits
Bits/(Pixel*Frame)                       : 0.251
Stream size                              : 21.5 GiB (88%)
Title                                    : Serengeti.4K.Natures.Greatest.Journey.2015.DOCU.2160p.BluRay.REMUX.HEVC.DTS-HD.MA.5.1-FGT
Writing library                          : ATEME Titan File 3.7.7 (4.7.7.0)
Default                                  : Yes
Forced                                   : No
Color range                              : Limited
Color primaries                          : BT.709
Transfer characteristics                 : BT.709
Matrix coefficients                      : BT.709

Audio #1
ID                                       : 2
Format                                   : DTS
Format/Info                              : Digital Theater Systems
Format profile                           : MA / Core
Codec ID                                 : A_DTS
Duration                                 : 1 h 1 min
Bit rate mode                            : Variable / Constant
Bit rate                                 : 3 481 kb/s / 1 509 kb/s
Channel(s)                               : 6 channels
Channel positions                        : Front: L C R, Side: L R, LFE
Sampling rate                            : 48.0 kHz
Frame rate                               : 93.750 FPS (512 SPF)
Bit depth                                : 24 bits
Compression mode                         : Lossless / Lossy
Stream size                              : 1.50 GiB (6%)
Title                                    : Serengeti.4K.Natures.Greatest.Journey.2015.DOCU.2160p.BluRay.REMUX.HEVC.DTS-HD.MA.5.1-FGT
Language                                 : English
Default                                  : Yes
Forced                                   : No

Audio #2
ID                                       : 3
Format                                   : DTS
Format/Info                              : Digital Theater Systems
Format profile                           : MA / Core
Codec ID                                 : A_DTS
Duration                                 : 1 h 1 min
Bit rate mode                            : Variable / Constant
Bit rate                                 : 3 491 kb/s / 1 509 kb/s
Channel(s)                               : 6 channels
Channel positions                        : Front: L C R, Side: L R, LFE
Sampling rate                            : 48.0 kHz
Frame rate                               : 93.750 FPS (512 SPF)
Bit depth                                : 24 bits
Compression mode                         : Lossless / Lossy
Stream size                              : 1.50 GiB (6%)
Title                                    : Serengeti.4K.Natures.Greatest.Journey.2015.DOCU.2160p.BluRay.REMUX.HEVC.DTS-HD.MA.5.1-FGT
Language                                 : German
Default                                  : No
Forced                                   : No

Menu
00:00:00.000                             : en:Chapter 1
00:11:21.180                             : en:Chapter 2
00:19:14.987                             : en:Chapter 3
00:30:10.350                             : en:Chapter 4
00:38:00.486                             : en:Chapter 5
00:48:48.050                             : en:Chapter 6
01:01:14.379                             : en:Chapter 7

塞伦盖蒂:自然界最壮观的旅程4k-Serengeti.4K.Natures.Greatest.Journey.2015.DOCU.2160p.BluRay.REMUX.HEVC.DTS-HD.MA.5.1-FGT 4K  UHD蓝光原盘电影下载


塞伦盖蒂:自然界最壮观的旅程4k-Serengeti.4K.Natures.Greatest.Journey.2015.DOCU.2160p.BluRay.REMUX.HEVC.DTS-HD.MA.5.1-FGT (4K UHD 蓝光蓝光破解版 2160p 24.50GB )

游客,如果您要查看本帖隐藏内容请回复

评分

参与人数 2贡献值 +2 活跃度 +3 收起 理由
usascpt + 2 很给力!
anshun + 3 赞一个!

查看全部评分

B Color Smilies

全部评论890

塞伦盖蒂:自然界最壮观的旅程4kSerengeti.4K.Natures.Greatest.Journey.2015.DOCU.2160p.BluRay.REMUX.HEVC.DTS-HD.MA.5.1-[第305部破解UHD蓝光原盘电影] 
返回顶部 联系我们