雨枫 发表于 2018-9-11 19:06 | 显示全部楼层 |阅读模式

片  名:罗宾汉4K [下载地址在帖子底部]

  • 年  代:2010  
  • 国  家:美国 英国 
  • 类  别:动作 冒险 剧情 
  • 字  幕:英文原版
  • 字幕链接:https://www.hao4k.com/thread-30350-1-1.html
  • 上映日期:2010-05-12
  • 文件格式:mkv   
  • 视频效果:4K(3840x2160)    
  • 资源大小:64.16GB
  • 片  长:140 分钟 / 131 分钟(戛纳电影节) / 156 分钟(导演剪辑版)分钟
  • 导  演:雷德利·斯科特
  • 豆瓣链接:https://movie.douban.com/subject/2062677/
  • 主  演:罗素·克劳 / 凯特·布兰切特 / 威廉·赫特 / 马克·斯特朗 / 马克斯·冯·叙多夫 /

剧情简介

13世纪,大英帝国在狮心王理查一世(丹尼·赫斯顿 Danny Huston 饰)的率领下与来犯的法国军队展开鏖战。孔武有力、骁勇善战的罗宾·朗斯特莱德(罗素·克劳 Russell Crowe 饰)是这群英国战士中的一员,作为射手的他曾随理查参加过十字军东征,在对法的战争中也表现勇猛。但是狮心王遭遇阴谋刺杀,罗宾接受与国王一同遇刺的罗伯特•洛克斯利的遗愿,摇身变成罗伯特回到英国。在王宫骗吃骗喝过后,罗宾如约来到罗伯特的故乡诺丁汉,他不仅得到罗伯特父亲的准许继续假扮其儿子,还意外得知了自己的身世之谜。与此同时,法国野心勃勃,觊觎着英国的领土,而英国国内又乱相丛生,危机四伏。
  在暗潮涌动的大时代下,罗宾似乎明了了自己的生存使命,不久后他拿起长弓,投入深林,开启了经久不衰的罗宾汉的传说……
本帖最后由 雨枫 于 2018-9-17 10:38 编辑

又名: 侠盗·骄雄(港)     罗宾汉 (2010)Robin.Hood.2010.DC.2160p.BluRay.REMUX.HEVC.DTS-X.7.1-FGT-【64.16GB】
罗宾汉 Robin Hood 获奖情况
  • 第12届美国青少年选择奖
  • 最佳动作冒险电影男演员(提名) 罗素·克劳
  • 最佳动作冒险电影女演员(提名) 凯特·布兰切特


  • VideoID : 1
    Format : HEVC
    Format/Info : High Efficiency Video Coding
    Commercial name : HDR10
    Format profile : Main 10@L5.1@High
    Codec ID : V_MPEGH/ISO/HEVC
    Duration : 2 h 35 min
    Bit rate : 48.4 Mb/s
    Width : 3 840 pixels
    Height : 2 160 pixels
    Display aspect ratio : 16:9
    Frame rate mode : Constant
    Frame rate : 23.976 (24000/1001) FPS
    Color space : YUV
    Chroma subsampling : 4:2:0 (Type 2)
    Bit depth : 10 bits
    Bits/(Pixel*Frame) : 0.243
    Stream size : 52.7 GiB (82%)
    Title : Robin.Hood.2010.DC.2160p.BluRay.REMUX.HEVC.DTS-X.7.1-FGT
    Writing library : ATEME Titan File 3.8.16 (4.8.16.0)
    Default : Yes
    Forced : No
    Color range : Limited
    Color primaries : BT.2020
    Transfer characteristics : PQ
    Matrix coefficients : BT.2020 non-constant
    Mastering display color primaries : Display P3
    Mastering display luminance : min: 0.0050 cd/m2, max: 1000 cd/m2
    Maximum Content Light Level : 1001 cd/m2
    Maximum Frame-Average Light Level : 328 cd/m2

    Audio #1
    ID : 2
    Format : DTS
    Format/Info : Digital Theater Systems
    Format profile : X / MA / Core
    Codec ID : A_DTS
    Duration : 2 h 35 min
    Bit rate mode : Variable / Variable / Constant
    Bit rate : 7 421 kb/s / 7 421 kb/s / 1 509 kb/s
    Channel(s) : Object Based / 8 channels / 6 channels
    Channel positions : Object Based / Front: L C R, Side: L R, Back: L R, LFE / Front: L C R, Side: L R, LFE
    Sampling rate : / 48.0 kHz / 48.0 kHz
    Frame rate : 93.750 FPS (512 SPF)
    Bit depth : / 24 bits / 24 bits
    Compression mode : / Lossless / Lossy
    Stream size : 8.08 GiB (13%)
    Title : Robin.Hood.2010.DC.2160p.BluRay.REMUX.HEVC.DTS-X.7.1-FGT
    Language : English
    Default : Yes
    Forced : No

    Audio #2
    ID : 3
    Format : DTS
    Format/Info : Digital Theater Systems
    Codec ID : A_DTS
    Duration : 2 h 35 min
    Bit rate mode : Constant
    Bit rate : 768 kb/s
    Channel(s) : 6 channels
    Channel positions : Front: L C R, Side: L R, LFE
    Sampling rate : 48.0 kHz
    Frame rate : 93.750 FPS (512 SPF)
    Bit depth : 24 bits
    Compression mode : Lossy
    Stream size : 856 MiB (1%)
    Title : Robin.Hood.2010.DC.2160p.BluRay.REMUX.HEVC.DTS-X.7.1-FGT
    Language : French
    Default : No
    Forced : No

    Audio #3
    ID : 4
    Format : DTS
    Format/Info : Digital Theater Systems
    Codec ID : A_DTS
    Duration : 2 h 35 min
    Bit rate mode : Constant
    Bit rate : 768 kb/s
    Channel(s) : 6 channels
    Channel positions : Front: L C R, Side: L R, LFE
    Sampling rate : 48.0 kHz
    Frame rate : 93.750 FPS (512 SPF)
    Bit depth : 24 bits
    Compression mode : Lossy
    Stream size : 856 MiB (1%)
    Title : Robin.Hood.2010.DC.2160p.BluRay.REMUX.HEVC.DTS-X.7.1-FGT
    Language : Spanish
    Default : No
    Forced : No

    Audio #4
    ID : 5
    Format : DTS
    Format/Info : Digital Theater Systems
    Codec ID : A_DTS
    Duration : 2 h 35 min
    Bit rate mode : Constant
    Bit rate : 768 kb/s
    Channel(s) : 6 channels
    Channel positions : Front: L C R, Side: L R, LFE
    Sampling rate : 48.0 kHz
    Frame rate : 93.750 FPS (512 SPF)
    Bit depth : 24 bits
    Compression mode : Lossy
    Stream size : 856 MiB (1%)
    Title : Robin.Hood.2010.DC.2160p.BluRay.REMUX.HEVC.DTS-X.7.1-FGT
    Language : Japanese
    Default : No
    Forced : No

    Audio #5
    ID : 6
    Format : DTS
    Format/Info : Digital Theater Systems
    Codec ID : A_DTS
    Duration : 2 h 35 min
    Bit rate mode : Constant
    Bit rate : 768 kb/s
    Channel(s) : 6 channels
    Channel positions : Front: L C R, Side: L R, LFE
    Sampling rate : 48.0 kHz
    Frame rate : 93.750 FPS (512 SPF)
    Bit depth : 24 bits
    Compression mode : Lossy
    Stream size : 856 MiB (1%)
    Title : Robin.Hood.2010.DC.2160p.BluRay.REMUX.HEVC.DTS-X.7.1-FGT
    Language : Portuguese
    Default : No
    Forced : No

    Text #1
    ID : 7
    Format : PGS
    Muxing mode : zlib
    Codec ID : S_HDMV/PGS
    Codec ID/Info : Picture based subtitle format used on BDs/HD-DVDs
    Duration : 2 h 34 min
    Bit rate : 27.8 kb/s
    Count of elements : 3209
    Stream size : 30.6 MiB (0%)
    Title : English-PGS
    Language : English
    Default : Yes
    Forced : No

    Text #2
    ID : 8
    Format : PGS
    Muxing mode : zlib
    Codec ID : S_HDMV/PGS
    Codec ID/Info : Picture based subtitle format used on BDs/HD-DVDs
    Duration : 2 h 34 min
    Bit rate : 26.0 kb/s
    Count of elements : 2798
    Stream size : 28.8 MiB (0%)
    Title : French-PGS
    Language : French
    Default : No
    Forced : No

    Text #3
    ID : 9
    Format : PGS
    Muxing mode : zlib
    Codec ID : S_HDMV/PGS
    Codec ID/Info : Picture based subtitle format used on BDs/HD-DVDs
    Duration : 2 h 34 min
    Bit rate : 25.0 kb/s
    Count of elements : 2931
    Stream size : 27.7 MiB (0%)
    Title : Spanish-PGS
    Language : Spanish
    Default : No
    Forced : No

    Text #4
    ID : 10
    Format : PGS
    Muxing mode : zlib
    Codec ID : S_HDMV/PGS
    Codec ID/Info : Picture based subtitle format used on BDs/HD-DVDs
    Duration : 2 h 34 min
    Bit rate : 19.5 kb/s
    Count of elements : 2909
    Stream size : 21.6 MiB (0%)
    Title : Japanese-PGS
    Language : Japanese
    Default : No
    Forced : No

    Text #5
    ID : 11
    Format : PGS
    Muxing mode : zlib
    Codec ID : S_HDMV/PGS
    Codec ID/Info : Picture based subtitle format used on BDs/HD-DVDs
    Duration : 2 h 34 min
    Bit rate : 25.9 kb/s
    Count of elements : 2944
    Stream size : 28.7 MiB (0%)
    Title : Portuguese-PGS
    Language : Portuguese
    Default : No
    Forced : No

    Text #6
    ID : 12
    Format : PGS
    Muxing mode : zlib
    Codec ID : S_HDMV/PGS
    Codec ID/Info : Picture based subtitle format used on BDs/HD-DVDs
    Duration : 2 h 34 min
    Bit rate : 668 b/s
    Count of elements : 111
    Stream size : 757 KiB (0%)
    Title : French-FORCED-PGS
    Language : French
    Default : No
    Forced : No

    Text #7
    ID : 13
    Format : PGS
    Muxing mode : zlib
    Codec ID : S_HDMV/PGS
    Codec ID/Info : Picture based subtitle format used on BDs/HD-DVDs
    Duration : 2 h 34 min
    Bit rate : 1 142 b/s
    Count of elements : 211
    Stream size : 1.27 MiB (0%)
    Title : Spanish-FORCED-PGS
    Language : Spanish
    Default : No
    Forced : No

    Text #8
    ID : 14
    Format : PGS
    Muxing mode : zlib
    Codec ID : S_HDMV/PGS
    Codec ID/Info : Picture based subtitle format used on BDs/HD-DVDs
    Duration : 2 h 33 min
    Bit rate : 978 b/s
    Count of elements : 222
    Stream size : 1.08 MiB (0%)
    Title : Japanese-FORCED-PGS
    Language : Japanese
    Default : No
    Forced : No

    Menu
    00:00:00.000 : :Chapter 1
    00:12:05.975 : :Chapter 2
    00:18:27.439 : :Chapter 3
    00:25:11.551 : :Chapter 4
    00:33:31.425 : :Chapter 5
    00:38:36.981 : :Chapter 6
    00:48:42.586 : :Chapter 7
    00:57:11.886 : :Chapter 8
    01:04:14.308 : :Chapter 9
    01:10:41.612 : :Chapter 10
    01:23:24.624 : :Chapter 11
    01:32:17.114 : :Chapter 12
    01:40:30.148 : :Chapter 13
    01:49:15.882 : :Chapter 14
    01:56:06.417 : :Chapter 15
    02:02:29.091 : :Chapter 16
    02:09:20.669 : :Chapter 17
    02:18:21.417 : :Chapter 18
    02:22:48.684 : :Chapter 19
    02:27:08.611 : :Chapter 20


文件相同,下载地址不同。下载一个即可
游客,如果您要查看本帖隐藏内容请回复


评分

参与人数 1贡献值 +1 K币 +8 收起 理由
lili + 1 + 8 速度很快哦,感谢分享资源,好人一生平安

查看全部评分

sgmoyong 发表于 2018-9-19 16:56 | 显示全部楼层
好的,谢谢!
f124179798 发表于 2018-9-19 09:04 | 显示全部楼层
谢谢分享谢谢分享
太开心 发表于 2018-9-18 23:14 | 显示全部楼层
谢谢楼主的分享,一生平安。
cpc552844 发表于 2018-9-18 22:54 | 显示全部楼层
先下載收藏,謝謝…
jacpat 发表于 2018-9-18 22:33 | 显示全部楼层
好看的电影下载慢慢看
lzg_39 发表于 2018-9-18 15:34 | 显示全部楼层
好好好   我喜欢
扬鞭策马问天 发表于 2018-9-18 13:20 | 显示全部楼层
汉4K Robin.Hood.2010.DC.2160p.BluRay.REMUX.HEV
lxg1970 发表于 2018-9-17 15:08 | 显示全部楼层
等了好久的高清版本
lxg1970 发表于 2018-9-17 15:07 | 显示全部楼层
好看的电影下载慢慢看
BABYSH 发表于 2018-9-17 13:09 | 显示全部楼层
很好很强大的
youxingwen001 发表于 2018-9-17 10:11 | 显示全部楼层
好电影,谢谢分享
lypamd 发表于 2018-9-16 20:46 | 显示全部楼层
谢谢楼主分享好电影!
tom69 发表于 2018-9-16 14:00 | 显示全部楼层
谢谢分享!!
taboomm 发表于 2018-9-16 09:39 | 显示全部楼层


谢谢楼主分享
fine 发表于 2018-9-15 13:20 | 显示全部楼层

谢谢楼主分享
chengbing17 发表于 2018-9-15 08:41 | 显示全部楼层

感谢楼主无私分享
lendy 发表于 2018-9-15 08:39 | 显示全部楼层
我购买了怎么没反应
您需要登录后才可以回帖 登录 | 立即注册

本版积分规则

返回顶部 联系我们