片  名:拯救圣诞记4k

  • 导  演:克雷·卡提斯
  • 年  代:2018年
  • 国  家:美国   
  • 电影分类:喜剧   
  • 电影格式:MKV|REMUX   
  • 分 辨 率: 4K(3840x2160)    
  • 画质标准:HDR    
  • 音质编码:Dolby Digital Audio    
  • 电影声道:5.1声道   
  • 电影语言:英文原版     
  • 资源大小:18.82GB
  • 中文字幕:

剧情简介

充满佳节气氛的冒险片《圣诞急救队》由《小鬼当家》及《哈利·波特》导演克里斯·哥伦布监製,并由《愤怒的小鸟》导演克雷·凯提斯执导。故事讲述凯特(妲比·坎普饰)和泰迪(犹大·路易斯饰)两兄妹原本打算在平安夜拿相机拍下圣诞老人(寇特·罗素饰)到来的证据,却阴错阳差地踏上一段所有小孩梦寐以求的旅程。他们不单目睹圣诞老人驾临,还偷偷坐上他的雪橇、不小心把雪橇撞毁,最后竟差点搞砸了圣诞节。在这个疯狂的夜晚,凯特和泰迪得以见到了圣诞老人不为人知的一面,并和圣诞老人以及他忠心的小精灵携手合作,齐力挽救圣诞节。

https://www.hao4k.com/forum.php?mod=post&action=edit&fid=2&tid=32006&pid=951890&page=1 ... ...

https://www.hao4k.com/forum.php?mod=post&action=edit&fid=2&tid=32006&pid=951890&page=1 ... ...

  1. Video
  2. ID : 1
  3. Format : HEVC
  4. Format/Info : High Efficiency Video Coding
  5. Commercial name : HDR10
  6. Format profile : Main 10@L5.1@High
  7. Codec ID : V_MPEGH/ISO/HEVC
  8. Duration : 1 h 43 min
  9. Bit rate : 25.3 Mb/s
  10. Width : 3 840 pixels
  11. Height : 2 076 pixels
  12. Display aspect ratio : 1.85:1
  13. Frame rate mode : Constant
  14. Frame rate : 24.000 FPS
  15. Color space : YUV
  16. Chroma subsampling : 4:2:0 (Type 2)
  17. Bit depth : 10 bits
  18. Bits/(Pixel*Frame) : 0.132
  19. Stream size : 18.3 GiB (97%)
  20. Writing library : x265 2.9+8-27d8424c799d:[Windows][MSVC 1915][64 bit] 10bit
  21. Encoding settings : cpuid=1111039 / frame-threads=4 / numa-pools=28 / wpp / no-pmode / no-pme / no-psnr / no-ssim / log-level=2 / input-csp=1 / input-res=3840x2076 / interlace=0 / total-frames=148926 / level-idc=51 / high-tier=1 / uhd-bd=0 / ref=4 / no-allow-non-conformance / repeat-headers / annexb / aud / hrd / info / hash=0 / no-temporal-layers / no-open-gop / min-keyint=24 / keyint=240 / gop-lookahead=0 / bframes=4 / b-adapt=2 / b-pyramid / bframe-bias=0 / rc-lookahead=25 / lookahead-slices=4 / scenecut=40 / radl=0 / no-intra-refresh / ctu=64 / min-cu-size=8 / rect / no-amp / max-tu-size=32 / tu-inter-depth=1 / tu-intra-depth=1 / limit-tu=0 / rdoq-level=2 / dynamic-rd=0.00 / no-ssim-rd / signhide / no-tskip / nr-intra=0 / nr-inter=0 / no-constrained-intra / no-strong-intra-smoothing / max-merge=3 / limit-refs=3 / limit-modes / me=3 / subme=3 / merange=57 / temporal-mvp / weightp / no-weightb / no-analyze-src-pics / deblock=-3:-3 / no-sao / no-sao-non-deblock / rd=4 / no-early-skip / rskip / no-fast-intra / no-tskip-fast / no-cu-lossless / no-b-intra / no-splitrd-skip / rdpenalty=0 / psy-rd=2.00 / psy-rdoq=1.00 / no-rd-refine / no-lossless / cbqpoffs=0 / crqpoffs=0 / rc=crf / crf=16.0 / qcomp=0.80 / qpstep=4 / stats-write=0 / stats-read=0 / vbv-maxrate=160000 / vbv-bufsize=160000 / vbv-init=0.9 / crf-max=0.0 / crf-min=0.0 / ipratio=1.40 / pbratio=1.30 / aq-mode=1 / aq-strength=1.00 / cutree / zone-count=0 / no-strict-cbr / qg-size=32 / no-rc-grain / qpmax=69 / qpmin=0 / no-const-vbv / sar=1 / overscan=0 / videoformat=5 / range=0 / colorprim=9 / transfer=16 / colormatrix=9 / chromaloc=1 / chromaloc-top=2 / chromaloc-bottom=2 / display-window=0 / master-display=G(13250,34500)B(7500,3000)R(34000,16000)WP(15635,16450)L(10000000,1) / max-cll=1166,647 / min-luma=0 / max-luma=1023 / log2-max-poc-lsb=8 / vui-timing-info / vui-hrd-info / slices=1 / no-opt-qp-pps / no-opt-ref-list-length-pps / no-multi-pass-opt-rps / scenecut-bias=0.05 / no-opt-cu-delta-qp / no-aq-motion / hdr / hdr-opt / no-dhdr10-opt / no-idr-recovery-sei / analysis-reuse-level=5 / scale-factor=0 / refine-intra=0 / refine-inter=0 / refine-mv=0 / no-limit-sao / ctu-info=0 / no-lowpass-dct / refine-mv-type=0 / copy-pic=1 / max-ausize-factor=1.0 / no-dynamic-refine / no-single-sei
  22. Default : Yes
  23. Forced : No
  24. Color range : Limited
  25. Color primaries : BT.2020
  26. Transfer characteristics : PQ
  27. Matrix coefficients : BT.2020 non-constant
  28. Mastering display color primaries : Display P3
  29. Mastering display luminance : min: 0.0001 cd/m2, max: 1000 cd/m2
  30. Maximum Content Light Level : 1166 cd/m2
  31. Maximum Frame-Average Light Level : 647 cd/m2

  32. Audio #1
  33. ID : 2
  34. Format : AC-3
  35. Format/Info : Audio Coding 3
  36. Commercial name : Dolby Digital
  37. Codec ID : A_AC3
  38. Duration : 1 h 43 min
  39. Bit rate mode : Constant
  40. Bit rate : 384 kb/s
  41. Channel(s) : 6 channels
  42. Channel layout : L R C LFE Ls Rs
  43. Sampling rate : 48.0 kHz
  44. Frame rate : 31.250 FPS (1536 SPF)
  45. Bit depth : 16 bits
  46. Compression mode : Lossy
  47. Stream size : 284 MiB (1%)
  48. Language : English
  49. Service kind : Complete Main
  50. Default : Yes
  51. Forced : No

  52. Audio #2
  53. ID : 3
  54. Format : AC-3
  55. Format/Info : Audio Coding 3
  56. Commercial name : Dolby Digital
  57. Codec ID : A_AC3
  58. Duration : 1 h 43 min
  59. Bit rate mode : Constant
  60. Bit rate : 384 kb/s
  61. Channel(s) : 6 channels
  62. Channel layout : L R C LFE Ls Rs
  63. Sampling rate : 48.0 kHz
  64. Frame rate : 31.250 FPS (1536 SPF)
  65. Bit depth : 16 bits
  66. Compression mode : Lossy
  67. Stream size : 284 MiB (1%)
  68. Language : French
  69. Service kind : Complete Main
  70. Default : No
  71. Forced : No

  72. Text #1
  73. ID : 4
  74. Format : UTF-8
  75. Codec ID : S_TEXT/UTF8
  76. Codec ID/Info : UTF-8 Plain Text
  77. Duration : 1 h 40 min
  78. Bit rate : 81 b/s
  79. Count of elements : 1908
  80. Stream size : 60.3 KiB (0%)
  81. Language : English
  82. Default : No
  83. Forced : No

  84. Text #2
  85. ID : 5
  86. Format : UTF-8
  87. Codec ID : S_TEXT/UTF8
  88. Codec ID/Info : UTF-8 Plain Text
  89. Duration : 1 h 42 min
  90. Bit rate : 3 b/s
  91. Count of elements : 85
  92. Stream size : 2.56 KiB (0%)
  93. Title : forced
  94. Language : French
  95. Default : No
  96. Forced : No

  97. Text #3
  98. ID : 6
  99. Format : UTF-8
  100. Codec ID : S_TEXT/UTF8
  101. Codec ID/Info : UTF-8 Plain Text
  102. Duration : 1 h 42 min
  103. Bit rate : 62 b/s
  104. Count of elements : 1475
  105. Stream size : 46.9 KiB (0%)
  106. Language : French
  107. Default : No
  108. Forced : No
复制代码


拯救圣诞记4k The.Christmas.Chronicles.2018.2160p.WEBRip.x265.10bit.HDR.DD5.1美影下载

The.Christmas.Chronicles.2018.2160p.WEBRip.x265.10bit.HDR.DD5.1-GASMASK.torrent (94.64 KB, 下载次数: 219)
B Color Smilies

全部评论15

拯救圣诞记4k/圣诞大件事(港) / 圣诞急救队(台) The.Christmas.Chronicles.2018.2160p.WEBRip.x265.10bit.HDR.DD5.1美影 
返回顶部 联系我们