2867215 发表于 2016-3-27 16:15 | 显示全部楼层 |阅读模式
[4K高清短片]我的浪漫的城市 - 圣托里尼岛[2160P/MKV/3.83GB]* g2 I# y; s: B+ F

3 ?8 `3 g1 _$ ?- K( d8 C 114643vggx45nb5zx8bg2g.jpg 114643z4xxpjj2r5xa63ma.jpg 114644bwfxzwk7opsqastx.jpg 114644uoajo27sszmq1ooa.jpg 114645g8sw6z2t3ge2ld8l.jpg 114646kpu0kddp4t1pryyy.jpg 114646lnro4mmdy2m5id5x.jpg 114646im814siiexet83hs.jpg 114647ufqclnc1y0qyi1h1.jpg 114648tkiidnpk7kuz5uu6.jpg 114648gsesf67oqo8z18rm.jpg 114648mbzjnuuz1jkd8pi1.jpg 114649bidhkwv6vk9gktqi.jpg % h- @% \2 e# x3 F1 y5 I& X6 k
/ W7 w7 S5 M$ ^6 _1 X; b) b3 Z+ u
114649ogxuu9n9ppn6pn8g.jpg   V' U: E0 d! X1 `: d+ `2 l# j) u

- N2 ?3 t# V" r, Z- L, jGeneral 5 B' y' C# o  Q
Unique ID : 197744829476563694837989438162672343508 (0x94C444D2F041F5C3A1712C59C800D9D4)
( j$ c3 F9 ~5 e$ ^' N: ~Complete name : My Romantic cities - Santorini (4K 2160p UHDTV HEVC AC3 En) Lotos2007.mkv
" e% ]% f1 K- n2 |/ ^Format : Matroska
6 w. Y  M* U$ y9 F. DFormat version : Version 4/Version 2
& g+ j  G7 v# y6 x: m0 wFile size : 3.83GiB ( H0 R1 w8 V2 m
Duration : 22min 15s
  M( L3 p+ O: D/ s# T2 O: z1 qOverall bit rate : 24.7 Mbps
+ I" B% Q" B/ A- h+ b* M# A( N8 ~Encoded date : UTC 2016-01-08 19:29:38
* z+ O& @2 P8 ^Writing application : mkvmerge v8.2.0 ('World of Adventure') 32bit
- u5 M5 P: G. c9 r5 m0 ?- G3 GWriting library : libebml v1.3.1 + libmatroska v1.4.2
! Q" L3 i; }& X/ _" C  y7 R
1 X2 Z* Q  Q; @$ a) S+ s8 r3 bVideo1 P3 ]9 {8 b( w) E
ID : 1 - w6 Q5 t9 d4 h2 _) t9 g' g) U
Format : AVC
1 _. A! b" w- wFormat/Info : Advanced Video Codec 5 Q+ B! L4 t1 E; I' V6 o" J: W6 z
Format profile : High@L5.1 @Main+ n( W5 ?& o# w7 A
Codec ID : V_MPEG4/ISO/AVC
+ j: Q/ B* X3 R/ g- xDuration : 22min 15s5 x/ u5 R! w# _& N1 d% b
Bit rate : 24.3 Mbps, f- v6 ~! ~0 X% j, h) C
Width : 3840 pixels 5 F' K$ r  z; W. S( n# D
Height : 2160 pixels   f% L, d0 [7 d; ?& a( R; A/ m- N
Display aspect ratio : 16:9
: o6 J% H  M/ h7 w, [7 iFrame rate mode : Constant
) r5 R4 K& |0 h: A0 m' b0 A8 rFrame rate : 50.000 fps
, ~! g7 F( g2 o) o$ x; k" EColor space : YUV - A1 G) e) n) b, R( j
Chroma subsampling : 4:2:0 0 k" j$ T7 O9 m7 `
Bit depth : 10 bits
. E- b7 P: I+ _9 lBits/(Pixel*Frame) : 0.058
! a( u2 U/ z; W+ O7 R3 u! ^Stream size : 3.77 GiB (98%)
- T* _: j" `& V$ {# H; rWriting library : x264 1.7:[Mac OS X][clang 6.1.0][64 bit] 16bpp6 O% k6 Y6 _7 ]2 T( I
Encoding settings : wpp/ctu=64/min-cu-size=8/max-tu-size=32/tu-inter-depth=1/me=1/psy=1/ subme=2/merange=57/no-rect/no-amp/max-merge=2/temporal-mvp/no-early-skip/ rdpenalty=0/no-tskip/no-tskip-fast/strong-intra-smoot & {: I% m/ q) t- N
Default : Yes
6 K2 Z# i' K" j( F# ?: n# z9 FForced : No
4 e1 c- ~! H; P( s) N/ r( x' R+ }- q. g: M: F
Audio #1 ; k. C) Z  [; M8 X; R* v
Format : AC-3 $ B! Q% D' }9 c; `3 X& m, S3 F
Format/Info : Audio Coding 3
6 l. s$ z. E: B* H1 H4 ^  S8 [Mode extension : CM (complete main)
" x& U/ `2 u# t1 l; U4 FFormat settings, Endianness : Big ! }& D7 W# O! m0 D3 E* H
Codec ID : A_AC3
. ]& a' v9 v; V" T; u  j$ O0 U: `, O' P- yDuration : 22min 15s
/ w7 B* d% c" }/ p! YBit rate mode : Constant  ' Q; t$ N+ L- K' B! E
Bit rate : 448 Kbps  
8 z4 s! i$ [( FChannel(s) : 2 channels ! ~3 `8 N, O! `3 G6 z# N5 b' k
Channel positions : Front: L R
% s$ @6 E, G: aSampling rate : 48.0 KHz
; x8 j+ b; d( Y/ r1 H/ t! yFrame rate : 31.250 fps (1536 spf)
( I/ ?5 W$ T8 o$ t( Q0 t2 RCompression mode : Lossy
: n- }- f/ |1 s! p; ^Stream size : 71.3 MiB (2%)
0 m5 z) ]' V, E, Y- N+ |: a& MLanguage : English
" X1 w0 S& {% J. T1 eDefault : Yes % O7 W- x, Y! T# u6 k. w) ?% F; b
Forced : No8 m8 P' G3 N) V) s. v% b. Q- C

/ H, Q+ {6 T, T1 _! ~5 i! X播放器:potplayer  点击下载:https://www.hao4k.com/thread-266-1-1.html
* x9 P) V, b7 r  j& N4 b- q- L% ?; I$ B8 S3 n. l. D+ I
[绝美演示片]我的浪漫的城市 - 圣托里尼岛[2160P/MKV/3.83GB] 百度云/种子BT种子文件百度云盘下载:+ @1 h: Q5 J) H+ F+ g, O
[绝美演示片]我的浪漫的城市 - 圣托里尼岛[2160PMKV3.83GB] 百度云种子BT种子文件百度.txt (301 Bytes)
oldnight 发表于 2016-4-8 09:39 | 显示全部楼层
试试看,感谢分享!
sxglys31202 发表于 2016-6-16 22:35 | 显示全部楼层
确实是难得4k好帖啊,顶先
㈦情ゝ 发表于 2016-6-27 05:10 | 显示全部楼层
4k视频片源我来了,谢谢提供~~
酿尽一江水 发表于 2016-9-13 12:16 来自 移动版  | 显示全部楼层
hao4k提供的4k视频资源有效率果然很高,其他网站的资源都失效了,这里还可以下载!
bmarine 发表于 2016-9-19 15:52 | 显示全部楼层
楼主是个美女吗?哪里来的这么多的4k视频啊,求告知~~
温柔体贴i 发表于 2016-9-23 09:04 | 显示全部楼层
感谢=啥也不说了,感谢楼主在hao4k分享4k视频内容哇!
wwwcctvyuy 发表于 2016-12-20 17:48 | 显示全部楼层
支持hao4k,支持楼主大人发布4k资源!
hero1968 发表于 2016-12-22 18:25 | 显示全部楼层
啥也不说了,感谢楼主在hao4k分享4k视频内容哇!
lbr 发表于 2017-1-7 22:35 | 显示全部楼层
确实是难得4k好帖啊,顶先
41868819 发表于 2017-1-9 10:34 | 显示全部楼层
啥也不说了,感谢楼主在hao4k分享4k视频内容哇!
怀恋老山城 发表于 2017-1-20 02:55 | 显示全部楼层
这个必须要有
asking 发表于 2017-1-25 11:09 | 显示全部楼层
之前下过 但打不开
henry_yjc 发表于 2017-1-28 14:53 | 显示全部楼层
我的浪漫的城市 - 圣托里尼岛,地中海,这辈子一定要去看
顺其自然 发表于 2017-1-31 10:38 | 显示全部楼层
支持hao4k,支持楼主大人发布4k资源!
yiling0705 发表于 2017-2-8 22:46 | 显示全部楼层
楼主辛苦了,谢谢分享
jpxxxx 发表于 2017-2-18 21:51 | 显示全部楼层
的浪漫的城市 - 圣托里尼岛[2160P/MKV/3.83GB] 百度云/种子 [修改]
678 发表于 2017-2-20 18:30 | 显示全部楼层
gooooooooooood
您需要登录后才可以回帖 登录 | 立即注册

本版积分规则

返回顶部 联系我们