[韩国UMAX.UHD]克拉拉的美丽色彩瑜伽(HEVC 60fps 10bit)[2160P/TS/3.18GB] 

2017-01-11 21:07 发布

4k视频下载 /[4k模特美女]
[韩国UMAX.UHD]克拉拉的美丽色彩瑜伽(HEVC 60fps 10bit)[2160P/TS/3.18GB]; A7 C, x1 O8 m/ i' J
180006jpg0h38ijhgjyrpp.jpg
. s# E5 K7 W: F( y: a. D! qGeneral
$ S! }" f+ K# K$ ^  WID : 1 (0x1)* \! Y, B3 m: w7 ]$ _, e
Complete name : 클라라의 뷰티풀 컬러요가 E1 2160p UHDTV HEVC-BtttS.ts" i$ |& t5 P. Q2 A- Z- m
Format : MPEG-TS
" B$ F3 z+ G+ b1 @  U; L  a2 xFile size : 3.18 GiB; K" u7 l3 o) }: _! t5 b% g
Duration : 13 min 39 s, ?; ~4 a( U# U' o- P8 x0 {
Overall bit rate mode : Variable5 e" b! c) K  @, s$ T
Overall bit rate : 33.4 Mbps/ D+ k4 x( }  [8 ^

$ M) W+ H4 B3 M3 ~9 _Video
/ i6 m4 a3 p* a/ Z- g. UID : 256 (0x100)
% m4 X% }3 h* ZMenu ID : 1 (0x1): V# }3 X7 `( a" n% Y3 G
Format : HEVC3 Q1 a( d9 s# y. J" X
Format/Info : High Efficiency Video Coding
9 v* q6 F+ v: p0 {Format profile : Main 10@L5.1@Main
! I! P* R  O& e' f0 w  ~Codec ID : 36
( U. c" o9 Z  J% tDuration : 13 min 39 s
- ]) \7 v3 s% ~, h" uBit rate : 31.3 Mbps
; i: e/ w1 x4 u0 h9 _Width : 3840 pixels
- U  q" U# v6 u# fHeight : 2160 pixels
2 G& Q9 g- N; i) L8 H- u' }Display aspect ratio : 16:97 F/ }8 i! b: @4 z" R7 N7 \
Frame rate : 60.000 FPS3 a* o8 k" c5 h0 \$ B5 C3 P; d
Color space : YUV
8 `) g7 D" G: J8 @5 Z. lChroma subsampling : 4:2:0
  P) q4 ]3 Z. l* l: sBit depth : 10 bits
9 l, g* [& z, r, E9 v$ n) _Bits/(Pixel*Frame) : 0.063! k2 C& {( Q4 [$ K) `
Stream size : 2.99 GiB (94%)
& M2 Q5 H, ?) E; A0 [Writing library : ATEME Titan KFE 3.6.2 (4.6.1.9)$ N( |3 [6 q( h0 j  A3 `' R

! q6 [% B% j, {8 s9 [' iAudio$ _$ `# D8 C' G* {. L8 s" H
ID : 257 (0x101)
2 F6 b4 ~' Q( X+ h0 f) vMenu ID : 1 (0x1)
$ J% |2 X# y+ A$ [% L: `# |; JFormat : AC-3
4 k( t$ {, e' Q2 [% A  p0 FFormat/Info : Audio Coding 3  V9 V* E6 b  a: y
Mode extension : CM (complete main)/ }. s- t# N( u
Format settings, Endianness : Big) R& \3 g+ i; n. ~7 M+ d+ T1 v
Codec ID : 129+ N+ |9 l; U' c% C3 m4 t" k
Duration : 13 min 39 s
& O( A' Q; _* nBit rate mode : Constant0 n: o4 n# F/ {7 v9 ]7 U
Bit rate : 384 kbps2 b% s- A* [+ ^" s$ Y8 P
Channel(s) : 2 channels9 A% S" r" h3 Y; z# V; E* d
Channel positions : Front: L R# }# @. V0 l! B7 I/ E
Sampling rate : 48.0 kHz7 h2 |% k) L0 ^0 {. f7 }7 ?. m
Frame rate : 31.250 FPS (1536 spf)
" J$ U$ R5 _4 E' r* G; O% \+ [! nBit depth : 16 bits2 ?  S; d1 z+ H$ Z. f* [; Y
Compression mode : Lossy% S0 c6 |% M# q8 e9 B. S
Delay relative to video : 5 ms( \0 ?2 d* R7 m& U& X0 g" b
Stream size : 37.5 MiB (1%)- q; ~3 G0 u. L3 Z
Language : Korean
, ?: q2 E9 ]4 x9 w; w+ ^4 k6 ^2 \
$ U- J# Z6 F: |" E/ aMenu
4 p4 ~0 g! l' P- cID : 4096 (0x1000)
* }7 L, X" K' nMenu ID : 1 (0x1)
8 m+ r! g1 t& B5 gDuration : 13 min 39 s
' W  b- \" Y# U) e; \* X( z9 TList : 256 (0x100) (HEVC) / 257 (0x101) (AC-3, Korean)6 O# w7 f# l0 `! B1 l
Language : / Korean5 P( m. @2 k9 T
Service name : Shyguy
: |) a7 ^/ W5 zService provider : Born 2 Seed! b; }3 b, w' K5 s
Service type : digital television
4 `# _0 R' o2 a, g8 ?" T 180007sttxdtigx9tzotot.jpg + B! r+ Z" [- F; p7 V

; q' d+ u( a4 W) n. i* f, s 180008tofn29prfpjnprj9.jpg
( A. l! d$ i  b0 D1 [# t' K
' R/ s$ D8 b2 `% R4 p% M# u 180009jk3nwe1nner3xkpe.jpg
5 D0 [0 Z  N; G$ N7 A2 \
$ S1 s; W/ g/ } 180010hscyi03iyw30sfwv.jpg
' u. q+ D3 N# t4 B( v8 |1 }2 `  H$ z* g6 L3 V& Y4 M! [9 Y) X* R
180011p97mrtlbdtbtsft7.jpg 4 p7 [$ v) _3 {: L# L# M7 E

% X/ t9 S9 M5 a* o: m9 I 180013fxeittlczp47s7yx.jpg
1 b5 N) q/ G, r1 F0 u3 s3 l/ K7 t; s$ `2 D$ {, X) ~, B
180014i2voggwo3ivbmn37.jpg 7 }4 W: ]: _; o" G, O% T
  S% C: M/ {  b% [9 X5 O9 Y
180015e9s9es0skx9egusk.jpg
: K2 p9 T/ m5 E1 p
- y. I, x7 y2 @9 C 180016p1tgvqfeft9xxwwt.jpg " o- c2 L/ _* u( ~, B9 B

4 q2 j! w9 \; n+ h( Y 180018t30grxw0gga4zj0f.jpg * x; n' n0 l$ D# ^% D9 C/ H+ Z  o
  \' K/ s8 c% \7 a
180020fxb02il3wux9wk3i.jpg
( F6 q% T/ E4 S# h! X
7 {. {, U5 b1 ?2 p, z; Y0 a' q- x 180021ehi17pq48oh4q45w.jpg . `" ^. H$ Q( D# e  S: E
5 \; z9 v) ]1 M6 \$ o1 I+ U
180021fkyw782g8t2yj8k1.jpg
7 E! M" u/ X! Z& E0 S% }- [# m1 Z  d, r. f1 G2 E/ p% X2 s
180022mvds4nbar3rs3f45.jpg
' j  }+ P5 _/ P+ G
: V* m* s, l5 c8 ?; Q) m 180023zna5nafnxrkmtcql.jpg
9 Z' B; I: X1 b0 P4 V. N2 W
! W% C" u) L6 {2 d 180024trw5xfsyxr76qbz6.jpg " g0 U+ s0 P% e2 g6 \7 J% o

% ?$ G% _$ W5 L 212908uu3wouayzyopp7om.jpg
. o" z5 k! b1 ]8 z$ Q$ }3 L) q1 N& U& i+ [" `3 v. [* f6 T; f
建议使用极速迅雷来高速下载!最高峰值11MB
' o$ ~/ R! h- K3 P播放器: Potplaye/MPC-HC
' `( o" k# c6 D* C* B+ I
$ O4 @4 }$ u1 g" n% T1 J6 f
0 z( x$ z4 ~& o6 _) h( k [韩国UMAX.UHD]克拉拉的美丽色彩瑜伽(HEVC 60fps 10bit)[2160P/TS/3.18GB]BT种子下载 :
, T3 F# w4 d/ _. N3 C: P: X9 C' {6 z) O* P# {1 O5 y3 h
游客,如果您要查看本帖隐藏内容请回复
5 d* _- Z* s4 J5 \3 h$ T/ ]
( s. h( ~+ @$ x! Q  \, I
! q2 `8 _5 W' g1 h- t" P

评分

参与人数 1贡献值 +1 收起 理由
李伯清 + 1 强推,这部效果太好,摄影专业,风景美丽,人漂亮,期待续集。

查看全部评分

B Color Smilies

全部评论1409

[韩国UMAX.UHD]克拉拉的美丽色彩瑜伽(HEVC 60fps 10bit)[2160P/TS/3.18GB] 
返回顶部 联系我们