索尼 BRAVIA OLED A1 4K HDR 演示片 (高码率 HEVC 60fps 10bit)[2160P/MP4/724MB] 

2017-05-26 21:58 发布

4k视频下载 /[4k演示视频]
索尼 BRAVIA OLED A1 4K HDR 演示片 (高码率 HEVC 60fps 10bit)[2160P/MP4/724MB]
% B) P, P, i; A5 |# h

索尼 BRAVIA OLED A1 4K HDR 演示片 (高码率 HEVC 60fps 10bit)[2160P/MP4/724MB]

索尼 BRAVIA OLED A1 4K HDR 演示片 (高码率 HEVC 60fps 10bit)[2160P/MP4/724MB] 5 K% e1 p  h6 f; j8 ]
8 K" S) n/ g4 l; j7 K4 U
注意,此4K片源为索尼OLED电视专用4K演示片!" m, v2 K# U5 f: z

4 A/ [8 O! M# B$ B) O- h

索尼 BRAVIA OLED A1 4K HDR 演示片 (高码率 HEVC 60fps 10bit)[2160P/MP4/724MB]

索尼 BRAVIA OLED A1 4K HDR 演示片 (高码率 HEVC 60fps 10bit)[2160P/MP4/724MB]
1 C" T$ F! x5 d. U: C4 A. k; Y6 I' C" a" Y$ u0 U

索尼 BRAVIA OLED A1 4K HDR 演示片 (高码率 HEVC 60fps 10bit)[2160P/MP4/724MB]

索尼 BRAVIA OLED A1 4K HDR 演示片 (高码率 HEVC 60fps 10bit)[2160P/MP4/724MB] ' S5 b. w" n+ m4 b4 y3 k

索尼 BRAVIA OLED A1 4K HDR 演示片 (高码率 HEVC 60fps 10bit)[2160P/MP4/724MB]

索尼 BRAVIA OLED A1 4K HDR 演示片 (高码率 HEVC 60fps 10bit)[2160P/MP4/724MB] , e( \# W# ~! P# o

+ D( O: w6 O/ E

索尼 BRAVIA OLED A1 4K HDR 演示片 (高码率 HEVC 60fps 10bit)[2160P/MP4/724MB]

索尼 BRAVIA OLED A1 4K HDR 演示片 (高码率 HEVC 60fps 10bit)[2160P/MP4/724MB] + g/ u7 F4 z! |( ~# N( b7 Y& N) A
) n9 @7 @0 y+ }8 Y) z

索尼 BRAVIA OLED A1 4K HDR 演示片 (高码率 HEVC 60fps 10bit)[2160P/MP4/724MB]

索尼 BRAVIA OLED A1 4K HDR 演示片 (高码率 HEVC 60fps 10bit)[2160P/MP4/724MB]
0 `8 [; o8 w) G- S- ~8 u6 o# c. ]5 q4 s7 _+ W+ f8 C

索尼 BRAVIA OLED A1 4K HDR 演示片 (高码率 HEVC 60fps 10bit)[2160P/MP4/724MB]

索尼 BRAVIA OLED A1 4K HDR 演示片 (高码率 HEVC 60fps 10bit)[2160P/MP4/724MB] 3 ~2 |# m; B7 f/ H$ M5 I, [. M# u

, K5 L/ h4 Z: p* g1 b! t% o9 G3 Z

索尼 BRAVIA OLED A1 4K HDR 演示片 (高码率 HEVC 60fps 10bit)[2160P/MP4/724MB]

索尼 BRAVIA OLED A1 4K HDR 演示片 (高码率 HEVC 60fps 10bit)[2160P/MP4/724MB]
, }3 Y9 S# ?+ o) r9 l8 L* A. p
0 g" N0 P' L  h* l% w7 U

索尼 BRAVIA OLED A1 4K HDR 演示片 (高码率 HEVC 60fps 10bit)[2160P/MP4/724MB]

索尼 BRAVIA OLED A1 4K HDR 演示片 (高码率 HEVC 60fps 10bit)[2160P/MP4/724MB]
  D) f! l* n9 Y8 {0 K! W/ @# M, ~* U$ H" m) S

索尼 BRAVIA OLED A1 4K HDR 演示片 (高码率 HEVC 60fps 10bit)[2160P/MP4/724MB]

索尼 BRAVIA OLED A1 4K HDR 演示片 (高码率 HEVC 60fps 10bit)[2160P/MP4/724MB]
6 H$ ?, J( D$ Q  c# S5 b7 L- }  `
/ V  {% b7 ^/ ?8 g/ V8 c

索尼 BRAVIA OLED A1 4K HDR 演示片 (高码率 HEVC 60fps 10bit)[2160P/MP4/724MB]

索尼 BRAVIA OLED A1 4K HDR 演示片 (高码率 HEVC 60fps 10bit)[2160P/MP4/724MB]
. @3 D$ x( D  ~  L* Z: A
; u8 B4 ?8 T0 u. l4 c! MGeneral0 p3 b+ a+ U. ]% o: \0 M4 h
Complete name : SONY.BRAVIA.OLED.HDR.4K.DEMO.mp4
: r/ b  R! o$ }! ?, n$ V8 MFormat : MPEG-4
, v/ X7 }: G" g- i. a& E$ tFormat profile : Base Media( i& e1 C5 F- u( A# p+ k& w
Codec ID : isom (isom)
, F/ ~: H, ]% ^4 dFile size : 724 MiB  p7 ~+ r3 v' D( g) \; E
Duration : 1 min 23 s6 E9 o* O# `5 y7 p
Overall bit rate mode : Variable
6 \0 u* t3 c3 m6 q% ]8 H4 UOverall bit rate : 73.1 Mbps
! b8 s: @5 w% d2 B: Q& v6 ?5 BEncoded date : UTC 2016-10-24 05:40:14
9 f+ n, X1 v5 H1 c/ n/ E* |Tagged date : UTC 2016-10-24 05:40:14
2 a" k5 y, E1 ?6 m0 c2 `8 {# `+ k  T6 C3 |5 n& W" |
Video
. u6 ?3 r) s' p+ o) B, IID : 1
6 ^6 k0 n2 u$ Z/ Q2 P( C" _+ iFormat : HEVC2 N2 i; a; r4 X2 K2 a5 j# B  u
Format/Info : High Efficiency Video Coding- Z; M/ f9 U4 y* a/ d5 c
Format profile : Main 10@L5.1@High
, H" Q1 e8 N* f% FCodec ID : hvc1% `, F$ o( p" X4 [& B
Codec ID/Info : High Efficiency Video Coding6 ^8 X- U, ]/ f
Duration : 1 min 23 s; }/ \% ?. G5 X% V$ S, ]
Bit rate : 72.9 Mbps
, Z9 K+ _) y! n9 b1 r  `Maximum bit rate : 94.2 Mbps/ x+ a" [  [4 v6 R2 |% Q
Width : 3840 pixels
) P0 \; n6 }' h7 |% D$ Y4 Q  y6 GHeight : 2160 pixels: ^# V. h) e4 o- g
Display aspect ratio : 16:9
9 r" j6 h8 H; b& r' x( bFrame rate mode : Constant8 G7 p6 a# T3 X8 ]3 c. ^
Frame rate : 59.940 (60000/1001) FPS! J* w9 g$ W) k  p" v
Color space : YUV8 |9 j" Y8 O, \  z: B
Chroma subsampling : 4:2:0 (Type 2)
' n+ S$ Y) W) F1 i& Q# m. a& _Bit depth : 10 bits
  m* n; P! R3 CBits/(Pixel*Frame) : 0.1476 Q; {9 X+ _0 D  x/ Q
Stream size : 722 MiB (100%)
  s4 h7 j- U0 F. y: V) ^2 F" t! R  w3 pEncoded date : UTC 2016-10-24 06:37:11
. p8 F( h; o, u; r5 w( {/ e% YTagged date : UTC 2016-10-24 05:40:23
. x& d/ L# R6 g7 t6 lColor range : Limited& _3 ]# b8 t: s5 \# w0 S5 ~
Color primaries : BT.2020- E/ M3 b/ Z" i" d+ }) ^
Transfer characteristics : SMPTE ST 2084
) m* A  t  b9 a% nMatrix coefficients : BT.2020 non-constant* F3 I0 \3 q" w. k" R
Mastering display color primar : R: x=1.000000 y=1.000000, G: x=1.000000 y=1.000000, B: x=1.000000 y=1.000000, White point: x=1.000000 y=1.000000
( H2 K+ D, N; o' h& vMastering display luminance : min: 0.1000 cd/m2, max: 0.5000 cd/m2& f; Z; \7 r3 Y  B  w
& F5 d5 `" n+ a2 o
Audio
& @- V9 X% D4 M, h6 `ID : 2
2 _0 S5 \6 k3 Y2 a6 E, HFormat : AAC
) z2 r6 O1 k& t, x7 j7 [Format/Info : Advanced Audio Codec& j! u1 Z4 Q1 S+ J9 ?/ P% I, L3 t; n
Format profile : LC2 d' e9 v6 J8 q& w% m, T
Codec ID : 404 b( `3 v, {9 J4 j4 E
Duration : 1 min 23 s
( V5 m, j+ j8 c: }. q% X: f9 {% }Source duration : 1 min 23 s2 {: _# i* z1 i, P
Bit rate mode : Variable: T+ L) Z! k  r) G
Bit rate : 192 kbps0 Z) @. k* L- f# `9 x
Maximum bit rate : 197 kbps
' O3 S. F/ W3 lChannel(s) : 2 channels
7 B7 w% ^+ M% z6 u  nChannel positions : Front: L R4 \, Y( r$ z& }+ w9 z
Sampling rate : 48.0 kHz
9 {; G- f0 a- n+ x: {( DFrame rate : 46.875 FPS (1024 spf)
/ K4 C" V7 d, x6 s/ sCompression mode : Lossy
  I2 h, f% K: h, l: N: h) LStream size : 1.90 MiB (0%)6 C9 w2 w5 l) P0 m) N/ B, H/ W% I
Source stream size : 1.90 MiB (0%)
2 }6 h4 O: B* CLanguage : English' B! T& x& x4 b: l# V- t9 E: d
Encoded date : UTC 2016-10-24 06:37:110 X/ e; A5 [0 t# g$ P% \! a
Tagged date : UTC 2016-10-24 05:40:23
. U; d% N9 J+ ^2 _! t8 g4 lDemo Ultra HD & HDR (HDR10)by Sony(for Sony OLED A1 Demo)
+ Q7 Z* \' e# K! N- g) n9 mHDR ! So your TV has to be able to play this format ! - h; x( i7 n3 S+ `
在4K OLED HDR电视上观看才能体验最佳效果!
$ z6 N+ j7 P4 L6 `6 s% {播放器 : Potplaye(2017版本); H( T$ p& G( g1 ]/ W
6 I( ]3 P+ B5 \) X% t' F
索尼 Bravia OLED A1电视! }1 u+ f, t& K  t: W# J

索尼 BRAVIA OLED A1 4K HDR 演示片 (高码率 HEVC 60fps 10bit)[2160P/MP4/724MB]

索尼 BRAVIA OLED A1 4K HDR 演示片 (高码率 HEVC 60fps 10bit)[2160P/MP4/724MB]
% K" P+ a; p" @5 X2 t索尼 Bravia OLED A1电视可以说是集多项黑科技于一体,由于采用了OLED屏幕,所以整体机身非常的纤薄,官方宣称电视的厚度仅为7.8mm,几乎和一部iphone不相上下了。另外该款电视的支架设计也是非常的有特色,在支架中集成了屏幕以外的硬件和接口,并且还配有一个低音炮。
& K  h" Q. Z  y+ B/ U: p
2 \) D9 w$ x: T0 x/ |另外索尼 Bravia OLED A1电视的一大亮点则是集成了整个音响系统并保持其极薄的厚度,索尼称之为“银幕声场”Acoustic Surface的技术,运用OLED无背光结构让屏幕本身直接发出声音。' i: i3 S$ u3 c% k7 u

索尼 BRAVIA OLED A1 4K HDR 演示片 (高码率 HEVC 60fps 10bit)[2160P/MP4/724MB]

索尼 BRAVIA OLED A1 4K HDR 演示片 (高码率 HEVC 60fps 10bit)[2160P/MP4/724MB] 9 w7 n0 a2 g6 a0 P
索尼 Bravia OLED A1电视采用了4K HDR图像处理芯片X1进阶版,支持HDR动态逐像重塑技术、4K HDR 14bit平滑渐变、双影像数据库三大技术,另外该款电视采用了安卓7.0系统,扩展性能方面更加的出色,并且还内置Google Assistant智能助手和PlayStation Vue服务。
' y+ P/ m$ ^% H, U

索尼 BRAVIA OLED A1 4K HDR 演示片 (高码率 HEVC 60fps 10bit)[2160P/MP4/724MB]

索尼 BRAVIA OLED A1 4K HDR 演示片 (高码率 HEVC 60fps 10bit)[2160P/MP4/724MB]
3 M& D) c0 `# q+ u  m
* E9 L0 x' h7 m8 i0 n0 z4 W0 T( D3 }- u
MP4百度云盘3 ~5 G7 y/ A  t; a1 a- M
; B) d+ e# v  B3 ~/ u

! f! v# i9 c0 v( ~, p& F2 ~ 索尼 BRAVIA OLED A1 4K HDR 演示片 (高码率 HEVC 60fps 10bit)[2160PMP4724MB].txt (319 Bytes, 下载次数: 173)
B Color Smilies

全部评论1347

索尼 BRAVIA OLED A1 4K HDR 演示片 (高码率 HEVC 60fps 10bit)[2160P/MP4/724MB] 
返回顶部 联系我们