4k电影:第五元素4k The.Fifth.Element.4K.HDR.10bit.BT2020.Dolby.True.HD.Atmos 

2017-06-16 00:05 发布

待验证/非4K资源 /[待验证4K资源]

片  名:第五元素

  • 导  演:吕克·贝松
  • 年  代:80年代    
  • 国  家:法国   
  • 电影分类:动作   科幻   冒险   
  • 电影格式:mp4    
  • 分 辨 率: 4K(3840x2160)    
  • 画质标准: 
  • 音质编码: 
  • 电影声道:
  • 电影语言:无字幕     
  • 资源大小:51.12GB
  • 中文字幕:

剧情简介

一头红发,perfect的“第五元素”莉露(Milla Jovovich饰)受命来到地球,她要协助人类与每隔五百年降临一次的邪恶力量对抗,联合风、火、水、土四块神石击退敌人。
  在实验室被复制出来后,言语不通的莉露在躲避人类的追捕中搭上了退役特工科本(Bruce Willis饰)的出租车。科本带莉露找到了负责接头的神父,两人也渐渐的产生了好感。
  莉露与科本一同前往一个叫“失落天堂”的星球找寻另外四种元素的神石。但是,在战斗中莉露受伤昏迷,而且由于人类的暴行和无知杀戮,莉露陷入了内心的迷惘。大敌当前,科本究竟用什么力量才能唤醒莉露呢?
d52.jpg

d51.jpg

Video:
ID : 1
Format : HEVC
Format/Info : High Efficiency Video Coding
Codec ID : V_MPEGH/ISO/HEVC
Duration : 2 h 5 min
Bit rate : 47.1 Mb/s
Width : 3 840 pixels
Height : 1 606 pixels
Display aspect ratio : 2.40:1
Frame rate mode : Constant
Frame rate : 23.976 (24000/1001) FPS
Bits/(Pixel*Frame) : 0.319
Stream size : 41.4 GiB (87%)
Title : hao4k-The.Fifth.Element.4K.HDR.10bit.BT2020.Dolby.True.HD.Atmos-VISIONPLUSHDR1000
Default : Yes
Forced : No

Audio #1
ID : 2
Format : TrueHD
Format profile : TrueHD+Atmos / TrueHD
Codec ID : A_TRUEHD
Duration : 2 h 5 min
Bit rate mode : Variable
Bit rate : 5 654 kb/s
Maximum bit rate : 9 309 kb/s
Channel(s) : Object Based / 8 channels
Channel positions : Object Based / Front: L C R, Side: L R, Back: L R, LFE
Sampling rate : / 48.0 kHz
Frame rate : 1 200.000 FPS (40 spf)
Compression mode : Lossless
Delay relative to video : 46 ms
Stream size : 4.97 GiB (10%)
Title : Dolby TrueHD 7.1 - Blu-ray [Mastered in 4K]
Language : English
Default : No
Forced : Yes

4k电影:第五元素The.Fifth.Element.4K.HDR.10bit.BT2020.Dolby.True.HD.Atmo BT种子下载:
资源一:资源已更新不需要密码了,已经购买过附件的用户重新下载即可
游客,如果您要查看本帖隐藏内容请回复

4k电影:第五元素The.Fifth.Element.4K.HDR.10bit.BT2020.Dolby.True.HD.Atmo 百度云盘下载:
资源二 (百度云盘)
游客,如果您要查看本帖隐藏内容请回复

第五元素The.Fifth.Element.4K破解版4K UHD 蓝光原盘版本下载:
https://www.hao4k.com/thread-13045-1-1.html
B Color Smilies

全部评论778

4k电影:第五元素4k The.Fifth.Element.4K.HDR.10bit.BT2020.Dolby.True.HD.Atmos 
返回顶部 联系我们